找回密碼

藍光電影網

查看: 96|回復: 6
打印 上一主題 下一主題

[REMUX.HEVC] 夏福特 Shaft.2019.2160p.BluRay.REMUX.HEVC.DTS-HD.MA.TrueHD.7.1.Atmos-FGT 51.55GB

[復制鏈接]

 成長值: 1735

跳轉到指定樓層
1#
發表于 前天 21:56 | 只看該作者 |只看大圖 回帖獎勵 |倒序瀏覽 |閱讀模式


譯  名 夏福特 / Shaft 2 / Son of Shaft / 夏福特之子 / 新殺戮戰警(臺) / 殺戮戰警2 / 辣手刑警 2:勉強父子檔(港) / 鐵桿神探2
片  名 Shaft
年  代 2019
產  地 美國
類  別 喜劇 / 動作 / 犯罪
語  言 英語
上映日期 2019-06-14(美國)
IMDb評分  6.4/10 from 26729 users
IMDb鏈接  http://www.imdb.com/title/tt4463894
豆瓣評分 6.8/10 from 5224 users
豆瓣鏈接 https://movie.douban.com/subject/27116384/
片  長 111分鐘
導  演 蒂姆·斯托瑞 Tim Story
編  劇 肯尼亞·巴里斯 Kenya Barris / 亞歷克斯·巴諾 Alex Barnow / 歐內斯特·泰迪曼 Ernest Tidyman
主  演 塞繆爾·杰克遜 Samuel L. Jackson
       杰西·厄舍 Jessie Usher
       理查德·朗德特里 Richard Roundtree
       雷吉娜·赫爾 Regina Hall
       亞歷山德拉·希普 Alexandra Shipp
       馬特·勞里亞 Matt Lauria
       提圖斯·維里沃 Titus Welliver
       馬索·曼恩 Method Man
       伊薩赫·德·班克爾 Isaach De Bankolé
       阿萬·喬賈 Avan Jogia
       勞倫·維勒斯 Lauren Vélez
       伊恩·卡塞爾伯里 Ian Casselberry
       西爾維婭·杰弗里斯 Sylvia Jefferies
       邁克·頓斯頓 Mike Dunston
       查爾斯·格林 Charles Green
       艾德麗安·C·摩爾 Adrienne C. Moore
       喬恩·亞瑟 Jon Arthur
       肖恩·貝克 Sean Baker
       蒂莫西·卡爾 Timothy Carr
       大衛·鄧斯頓 David Dunston
       何塞·阿爾弗雷多·費爾南德斯 José Alfredo Fernandez
       安東尼·B·哈里斯 Anthony B. Harris
       德梅特里·蘭德爾 Demetri Landell
       漢斯·馬雷羅 Hans Marrero
       布賴希亞·馬歇爾 Brayhia Marshall
       肖恩·麥克米倫 Shaun McMillan
       本杰明·韋弗 Benjamin Weaver


標  簽 喜劇 | 動作 | 犯罪 | 美國 | 黑人 | 2019 | 黑色幽默 | 華納

簡  介  

  杰西·厄舍加盟[殺戮戰警]續作[夏福特之子](Son of Shaft,暫譯),塞繆爾·杰克遜同時回歸。本片由蒂姆·斯托瑞([佐州自救兄弟])執導,肯尼亞·巴里斯編劇。厄舍扮演杰克遜的兒子,他同時也是一名聯邦調查局工作人員,更是網絡專家。
  1. Video
  2. ID                                       : 1
  3. Format                                   : HEVC
  4. Format/Info                              : High Efficiency Video Coding
  5. Format profile                           : Main [email protected]@High
  6. HDR format                               : SMPTE ST 2086, HDR10 compatible
  7. Codec ID                                 : V_MPEGH/ISO/HEVC
  8. Duration                                 : 1 h 51 min
  9. Bit rate                                 : 55.9 Mb/s
  10. Width                                    : 3 840 pixels
  11. Height                                   : 2 160 pixels
  12. Display aspect ratio                     : 16:9
  13. Frame rate mode                          : Constant
  14. Frame rate                               : 23.976 (24000/1001) FPS
  15. Color space                              : YUV
  16. Chroma subsampling                       : 4:2:0 (Type 2)
  17. Bit depth                                : 10 bits
  18. Bits/(Pixel*Frame)                       : 0.281
  19. Stream size                              : 43.5 GiB (84%)
  20. Title                                    : Shaft.2019.2160p.BluRay.REMUX.HEVC.DTS-HD.MA.TrueHD.7.1.Atmos-FGT
  21. Writing library                          : ATEME Titan File 3.9.0 (4.9.0.0)        
  22. Language                                 : English
  23. Default                                  : No
  24. Forced                                   : No
  25. Color range                              : Limited
  26. Color primaries                          : BT.2020
  27. Transfer characteristics                 : PQ
  28. Matrix coefficients                      : BT.2020 non-constant
  29. Mastering display color primaries        : Display P3
  30. Mastering display luminance              : min: 0.0050 cd/m2, max: 4000 cd/m2
  31. Maximum Content Light Level              : 718 cd/m2
  32. Maximum Frame-Average Light Level        : 132 cd/m2

  33. Audio #1
  34. ID                                       : 2
  35. Format                                   : MLP FBA 16-ch
  36. Format/Info                              : Meridian Lossless Packing FBA with 16-channel presentation
  37. Commercial name                          : Dolby TrueHD with Dolby Atmos
  38. Codec ID                                 : A_TRUEHD
  39. Duration                                 : 1 h 51 min
  40. Bit rate mode                            : Variable
  41. Bit rate                                 : 3 622 kb/s
  42. Maximum bit rate                         : 6 336 kb/s
  43. Channel(s)                               : 8 channels
  44. Channel layout                           : L R C LFE Ls Rs Lb Rb
  45. Sampling rate                            : 48.0 kHz
  46. Frame rate                               : 1 200.000 FPS (40 SPF)
  47. Compression mode                         : Lossless
  48. Stream size                              : 2.82 GiB (5%)
  49. Title                                    : Shaft.2019.2160p.BluRay.REMUX.HEVC.DTS-HD.MA.TrueHD.7.1.Atmos-FGT
  50. Language                                 : English
  51. Default                                  : Yes
  52. Forced                                   : No
  53. Number of dynamic objects                : 15
  54. Bed channel count                        : 1 channel
  55. Bed channel configuration                : LFE

  56. Audio #2
  57. ID                                       : 3
  58. Format                                   : DTS XLL
  59. Format/Info                              : Digital Theater Systems
  60. Commercial name                          : DTS-HD Master Audio
  61. Codec ID                                 : A_DTS
  62. Duration                                 : 1 h 51 min
  63. Bit rate mode                            : Variable
  64. Bit rate                                 : 4 026 kb/s
  65. Channel(s)                               : 8 channels
  66. Channel layout                           : C L R LFE Lb Rb Lss Rss
  67. Sampling rate                            : 48.0 kHz
  68. Frame rate                               : 93.750 FPS (512 SPF)
  69. Bit depth                                : 24 bits
  70. Compression mode                         : Lossless
  71. Stream size                              : 3.14 GiB (6%)
  72. Title                                    : Shaft.2019.2160p.BluRay.REMUX.HEVC.DTS-HD.MA.TrueHD.7.1.Atmos-FGT
  73. Language                                 : English
  74. Default                                  : No
  75. Forced                                   : No

  76. Audio #3
  77. ID                                       : 4
  78. Format                                   : AC-3
  79. Format/Info                              : Audio Coding 3
  80. Commercial name                          : Dolby Digital
  81. Codec ID                                 : A_AC3
  82. Duration                                 : 1 h 51 min
  83. Bit rate mode                            : Constant
  84. Bit rate                                 : 640 kb/s
  85. Channel(s)                               : 6 channels
  86. Channel layout                           : L R C LFE Ls Rs
  87. Sampling rate                            : 48.0 kHz
  88. Frame rate                               : 31.250 FPS (1536 SPF)
  89. Bit depth                                : 16 bits
  90. Compression mode                         : Lossy
  91. Stream size                              : 510 MiB (1%)
  92. Title                                    : Shaft.2019.2160p.BluRay.REMUX.HEVC.DTS-HD.MA.TrueHD.7.1.Atmos-FGT
  93. Language                                 : English
  94. Service kind                             : Complete Main
  95. Default                                  : No
  96. Forced                                   : No

  97. Audio #4
  98. ID                                       : 5
  99. Format                                   : AC-3
  100. Format/Info                              : Audio Coding 3
  101. Commercial name                          : Dolby Digital
  102. Codec ID                                 : A_AC3
  103. Duration                                 : 1 h 51 min
  104. Bit rate mode                            : Constant
  105. Bit rate                                 : 640 kb/s
  106. Channel(s)                               : 6 channels
  107. Channel layout                           : L R C LFE Ls Rs
  108. Sampling rate                            : 48.0 kHz
  109. Frame rate                               : 31.250 FPS (1536 SPF)
  110. Bit depth                                : 16 bits
  111. Compression mode                         : Lossy
  112. Stream size                              : 510 MiB (1%)
  113. Title                                    : Shaft.2019.2160p.BluRay.REMUX.HEVC.DTS-HD.MA.TrueHD.7.1.Atmos-FGT
  114. Language                                 : English
  115. Service kind                             : Complete Main
  116. Default                                  : No
  117. Forced                                   : No

  118. Audio #5
  119. ID                                       : 6
  120. Format                                   : AC-3
  121. Format/Info                              : Audio Coding 3
  122. Commercial name                          : Dolby Digital
  123. Codec ID                                 : A_AC3
  124. Duration                                 : 1 h 51 min
  125. Bit rate mode                            : Constant
  126. Bit rate                                 : 640 kb/s
  127. Channel(s)                               : 6 channels
  128. Channel layout                           : L R C LFE Ls Rs
  129. Sampling rate                            : 48.0 kHz
  130. Frame rate                               : 31.250 FPS (1536 SPF)
  131. Bit depth                                : 16 bits
  132. Compression mode                         : Lossy
  133. Stream size                              : 510 MiB (1%)
  134. Title                                    : Shaft.2019.2160p.BluRay.REMUX.HEVC.DTS-HD.MA.TrueHD.7.1.Atmos-FGT
  135. Language                                 : English
  136. Service kind                             : Complete Main
  137. Default                                  : No
  138. Forced                                   : No

  139. Audio #6
  140. ID                                       : 7
  141. Format                                   : AC-3
  142. Format/Info                              : Audio Coding 3
  143. Commercial name                          : Dolby Digital
  144. Codec ID                                 : A_AC3
  145. Duration                                 : 1 h 51 min
  146. Bit rate mode                            : Constant
  147. Bit rate                                 : 640 kb/s
  148. Channel(s)                               : 6 channels
  149. Channel layout                           : L R C LFE Ls Rs
  150. Sampling rate                            : 48.0 kHz
  151. Frame rate                               : 31.250 FPS (1536 SPF)
  152. Bit depth                                : 16 bits
  153. Compression mode                         : Lossy
  154. Stream size                              : 510 MiB (1%)
  155. Title                                    : Shaft.2019.2160p.BluRay.REMUX.HEVC.DTS-HD.MA.TrueHD.7.1.Atmos-FGT
  156. Language                                 : Spanish
  157. Service kind                             : Complete Main
  158. Default                                  : No
  159. Forced                                   : No

  160. Text #1
  161. ID                                       : 8
  162. Format                                   : UTF-8
  163. Codec ID                                 : S_TEXT/UTF8
  164. Codec ID/Info                            : UTF-8 Plain Text
  165. Duration                                 : 1 h 45 min
  166. Bit rate                                 : 79 b/s
  167. Count of elements                        : 2020
  168. Stream size                              : 61.5 KiB (0%)
  169. Title                                    : English-SRT
  170. Language                                 : English
  171. Default                                  : Yes
  172. Forced                                   : No

  173. Text #2
  174. ID                                       : 9
  175. Format                                   : PGS
  176. Muxing mode                              : zlib
  177. Codec ID                                 : S_HDMV/PGS
  178. Codec ID/Info                            : Picture based subtitle format used on BDs/HD-DVDs
  179. Duration                                 : 1 h 46 min
  180. Bit rate                                 : 49.1 kb/s
  181. Count of elements                        : 4356
  182. Stream size                              : 37.5 MiB (0%)
  183. Title                                    : English-PGS
  184. Language                                 : English
  185. Default                                  : No
  186. Forced                                   : No

  187. Text #3
  188. ID                                       : 10
  189. Format                                   : PGS
  190. Muxing mode                              : zlib
  191. Codec ID                                 : S_HDMV/PGS
  192. Codec ID/Info                            : Picture based subtitle format used on BDs/HD-DVDs
  193. Duration                                 : 1 h 50 min
  194. Bit rate                                 : 37.8 kb/s
  195. Count of elements                        : 3910
  196. Stream size                              : 29.9 MiB (0%)
  197. Title                                    : French-PGS
  198. Language                                 : French
  199. Default                                  : No
  200. Forced                                   : No

  201. Text #4
  202. ID                                       : 11
  203. Format                                   : PGS
  204. Muxing mode                              : zlib
  205. Codec ID                                 : S_HDMV/PGS
  206. Codec ID/Info                            : Picture based subtitle format used on BDs/HD-DVDs
  207. Duration                                 : 1 h 50 min
  208. Bit rate                                 : 42.9 kb/s
  209. Count of elements                        : 3888
  210. Stream size                              : 33.9 MiB (0%)
  211. Title                                    : Spanish-PGS
  212. Language                                 : Spanish
  213. Default                                  : No
  214. Forced                                   : No

  215. Menu
  216. 00:00:00.000                             : en:Chapter 01
  217. 00:08:02.607                             : en:Chapter 02
  218. 00:17:38.557                             : en:Chapter 03
  219. 00:27:55.840                             : en:Chapter 04
  220. 00:35:34.465                             : en:Chapter 05
  221. 00:41:22.354                             : en:Chapter 06
  222. 00:49:58.912                             : en:Chapter 07
  223. 00:59:05.208                             : en:Chapter 08
  224. 01:08:15.841                             : en:Chapter 09
  225. 01:17:30.562                             : en:Chapter 10
  226. 01:23:12.195                             : en:Chapter 11
  227. 01:33:29.145                             : en:Chapter 12
  228. 01:43:13.645                             : en:Chapter 13
  229. 01:46:54.741                             : en:Chapter 14
復制代碼









分享到:  QQ好友和群QQ好友和群
收藏收藏
開通VIP免費下載本站所有資源---點這里
新手必看:資源下載常見問題---點這里
回復

使用道具 舉報

2#
發表于 前天 22:15 | 只看該作者
可惜啊,沒有幣,下載不了!!!
開通VIP免費下載本站所有資源---點這里
新手必看:資源下載常見問題---點這里
回復 支持 反對

使用道具 舉報

3#
發表于 昨天 07:10 | 只看該作者

我看不錯噢 謝謝樓主!藍光電影網越來越好!
開通VIP免費下載本站所有資源---點這里
新手必看:資源下載常見問題---點這里
回復 支持 反對

使用道具 舉報

4#
發表于 昨天 09:04 | 只看該作者
開通VIP免費下載本站所有資源---點這里
新手必看:資源下載常見問題---點這里
回復 支持 反對

使用道具 舉報

5#
發表于 昨天 09:20 | 只看該作者
謝謝發片。
開通VIP免費下載本站所有資源---點這里
新手必看:資源下載常見問題---點這里
回復

使用道具 舉報

6#
發表于 昨天 10:03 | 只看該作者
非常火熱的一部影片啊。
開通VIP免費下載本站所有資源---點這里
新手必看:資源下載常見問題---點這里
回復 支持 反對

使用道具 舉報

 成長值: 640

7#
發表于 昨天 12:10 | 只看該作者
謝謝樓主無私分享。
開通VIP免費下載本站所有資源---點這里
新手必看:資源下載常見問題---點這里
回復 支持 反對

使用道具 舉報

懶得打字嘛,點擊右側快捷回復 【右側內容,后臺自定義】
您需要登錄后才可以回帖 登錄 | 立即加入

本版積分規則

現在加入藍光電影網,注冊一個賬號

QQ| 手機版|小黑屋| 藍光電影網 |網站地圖

Copyright © 2015-2019 Comsenz Inc.  Template by 藍光電影網 All Rights Reserved.

Powered by 藍光電影網 X3.4

特別聲明:本站所有資源均由網上收集而來,版權歸原影音公司所有,如果侵犯了你的權益,請通知我們,我們會及時刪除侵權內容.

快速回復 返回頂部 返回列表
极速快三是私人彩票吗