找回密碼

藍光電影網

查看: 126|回復: 5
打印 上一主題 下一主題

[動畫] 神奇女俠:血脈 Wonder.Woman.Bloodlines.2019.1080p.BluRay.x264-GECKOS 4.38GB

[復制鏈接]

 成長值: 1735

跳轉到指定樓層
1#
發表于 昨天 17:47 | 只看該作者 |只看大圖 回帖獎勵 |倒序瀏覽 |閱讀模式




譯  名 神奇女俠:血脈
片  名 Wonder Woman: Bloodlines
年  代 2019
產  地 美國
類  別 動畫 / 奇幻
語  言 英語
上映日期 2019-10-05(美國)
IMDb評分  4.6/10 from 7 users
IMDb鏈接  http://www.imdb.com/title/tt8752498
豆瓣評分 0/10 from 0 users
豆瓣鏈接 https://movie.douban.com/subject/30286098/
片  長 83分鐘
導  演 賈斯汀·科普蘭 Justin Copeland / 劉山姆 Sam Liu
編  劇 威廉·馬斯頓 William M. Marston / 麥格里德·斯科特 Mairghread Scott
主  演 羅莎里奧·道森 Rosario Dawson
       瑪莉·艾格洛蒲露絲 Marie Avgeropoulos
       艾德麗安·C·摩爾 Adrienne C. Moore
       杰弗里·多諾萬 Jeffrey Donovan
       克里·薩莫 Cree Summer
       邁克爾·多恩 Michael Dorn
       康斯坦斯·齊默 Constance Zimmer
       莫贊·瑪諾 Mozhan Marnò
       妮婭·瓦達拉斯 Nia Vardalos
       柯特奈·泰勒 Courtenay Taylor
       雷·蔡斯 Ray Chase
       Kimberly Brooks


標  簽 DC | 動畫 | 神奇女俠 | 2019 | 美國 | DC動漫 | 漫改 | DCAMU

簡  介  

  該部電影是2009年以來的第二部“神奇女俠”動畫電影,電影主要講述神奇女俠神奇女俠要從致命犯罪的組織幫助一名深陷麻煩的女孩,而這個組織的目標是入侵神奇女俠的家鄉天堂島。
  羅莎里奧·道森將繼續為神奇女俠配音,本片將有銀天鵝、豹女、毒藥博士和巨化女等神奇女俠經典反派登場。
  1. Video
  2. ID                                       : 1
  3. Format                                   : AVC
  4. Format/Info                              : Advanced Video Codec
  5. Format profile                           : [email protected]
  6. Format settings                          : CABAC / 4 Ref Frames
  7. Format settings, CABAC                   : Yes
  8. Format settings, Reference frames        : 4 frames
  9. Codec ID                                 : V_MPEG4/ISO/AVC
  10. Duration                                 : 1 h 22 min
  11. Bit rate                                 : 6 040 kb/s
  12. Width                                    : 1 920 pixels
  13. Height                                   : 1 080 pixels
  14. Display aspect ratio                     : 16:9
  15. Frame rate mode                          : Constant
  16. Frame rate                               : 23.976 (24000/1001) FPS
  17. Color space                              : YUV
  18. Chroma subsampling                       : 4:2:0
  19. Bit depth                                : 8 bits
  20. Scan type                                : Progressive
  21. Bits/(Pixel*Frame)                       : 0.121
  22. Stream size                              : 3.50 GiB (80%)
  23. Writing library                          : x264 core 158 r2984 3759fcb
  24. Encoding settings                        : cabac=1 / ref=4 / deblock=1:2:1 / analyse=0x3:0x133 / me=umh / subme=8 / psy=1 / psy_rd=1.00:0.00 / mixed_ref=1 / me_range=16 / chroma_me=1 / trellis=1 / 8x8dct=1 / cqm=0 / deadzone=21,11 / fast_pskip=0 / chroma_qp_offset=-2 / threads=30 / lookahead_threads=5 / sliced_threads=0 / nr=0 / decimate=1 / interlaced=0 / bluray_compat=0 / constrained_intra=0 / bframes=3 / b_pyramid=2 / b_adapt=1 / b_bias=0 / direct=3 / weightb=1 / open_gop=0 / weightp=2 / keyint=250 / keyint_min=23 / scenecut=40 / intra_refresh=0 / rc_lookahead=50 / rc=2pass / mbtree=1 / bitrate=6040 / ratetol=1.0 / qcomp=0.60 / qpmin=0 / qpmax=69 / qpstep=4 / cplxblur=20.0 / qblur=0.5 / vbv_maxrate=62500 / vbv_bufsize=78125 / nal_hrd=none / filler=0 / ip_ratio=1.40 / aq=1:1.00
  25. Default                                  : Yes
  26. Forced                                   : No

  27. Audio
  28. ID                                       : 2
  29. Format                                   : DTS
  30. Format/Info                              : Digital Theater Systems
  31. Codec ID                                 : A_DTS
  32. Duration                                 : 1 h 22 min
  33. Bit rate mode                            : Constant
  34. Bit rate                                 : 1 509 kb/s
  35. Channel(s)                               : 6 channels
  36. Channel layout                           : C L R Ls Rs LFE
  37. Sampling rate                            : 48.0 kHz
  38. Frame rate                               : 93.750 FPS (512 SPF)
  39. Bit depth                                : 24 bits
  40. Compression mode                         : Lossy
  41. Stream size                              : 895 MiB (20%)
  42. Language                                 : English
  43. Default                                  : Yes
  44. Forced                                   : No

  45. Menu
  46. 00:00:00.000                             : en:00:00:00.000
  47. 00:10:04.395                             : en:00:10:04.395
  48. 00:19:53.484                             : en:00:19:53.484
  49. 00:28:26.538                             : en:00:28:26.538
  50. 00:38:44.030                             : en:00:38:44.030
  51. 00:47:37.229                             : en:00:47:37.229
  52. 00:54:35.314                             : en:00:54:35.314
  53. 01:03:48.158                             : en:01:03:48.158
  54. 01:12:13.287                             : en:01:12:13.287
  55. 01:17:54.837                             : en:01:17:54.837
復制代碼








分享到:  QQ好友和群QQ好友和群
收藏收藏
開通VIP免費下載本站所有資源---點這里
新手必看:資源下載常見問題---點這里
回復

使用道具 舉報

2#
發表于 昨天 18:57 | 只看該作者
樓主發貼辛苦了,謝謝樓主分享!我覺得藍光電影網是注冊對了!
開通VIP免費下載本站所有資源---點這里
新手必看:資源下載常見問題---點這里
回復 支持 反對

使用道具 舉報

3#
發表于 昨天 20:55 | 只看該作者
樓主發貼辛苦了,謝謝樓主分享!我覺得藍光電影網是注冊對了!
開通VIP免費下載本站所有資源---點這里
新手必看:資源下載常見問題---點這里
回復 支持 反對

使用道具 舉報

4#
發表于 昨天 21:48 | 只看該作者
辛苦了  樓主!謝謝
開通VIP免費下載本站所有資源---點這里
新手必看:資源下載常見問題---點這里
回復 支持 反對

使用道具 舉報

5#
發表于 昨天 22:13 | 只看該作者
新資源啊 謝謝啦
開通VIP免費下載本站所有資源---點這里
新手必看:資源下載常見問題---點這里
回復 支持 反對

使用道具 舉報

6#
發表于 昨天 23:53 | 只看該作者
感謝分享這動畫
開通VIP免費下載本站所有資源---點這里
新手必看:資源下載常見問題---點這里
回復 支持 反對

使用道具 舉報

懶得打字嘛,點擊右側快捷回復 【右側內容,后臺自定義】
您需要登錄后才可以回帖 登錄 | 立即加入

本版積分規則

現在加入藍光電影網,注冊一個賬號

QQ| 手機版|小黑屋| 藍光電影網 |網站地圖

Copyright © 2015-2019 Comsenz Inc.  Template by 藍光電影網 All Rights Reserved.

Powered by 藍光電影網 X3.4

特別聲明:本站所有資源均由網上收集而來,版權歸原影音公司所有,如果侵犯了你的權益,請通知我們,我們會及時刪除侵權內容.

快速回復 返回頂部 返回列表
极速快三是私人彩票吗