找回密碼

藍光電影網

查看: 34|回復: 2
打印 上一主題 下一主題

[紀錄] 一代拳王/當我們是拳王的日子 When.We.Were.Kings.1996.1080p.BluRay.x264-HD4U 6.57GB

[復制鏈接]

 成長值: 1735

跳轉到指定樓層
1#
發表于 昨天 17:49 | 只看該作者 |只看大圖 回帖獎勵 |倒序瀏覽 |閱讀模式


譯  名 一代拳王 / 當我們是拳王的日子 / 王者風范
片  名 When We Were Kings
年  代 1996
產  地 美國
類  別 紀錄片 / 歷史 / 運動
語  言 英語
上映日期 1996-01(圣丹斯電影節) / 1997-02-14(美國)
IMDb評分  8.0/10 from 13924 users
IMDb鏈接  http://www.imdb.com/title/tt0118147
豆瓣評分 8.1/10 from 168 users
豆瓣鏈接 https://movie.douban.com/subject/1300184/
片  長 88分鐘
導  演 Leon Gast
主  演 穆罕默德·阿里 Muhammad Ali
       George Foreman
       Don King
       James Brown
       B.B. King
       Mobutu Sese Seko
       斯派克·李 Spike Lee
       諾曼·梅勒 Norman Mailer
       George Plimpton
       馬利克·鮑恩斯 Malick Bowens


標  簽 紀錄片 | 拳擊 | 美國 | 體育 | 1996 | 美國電影 | documentary | 1990s

簡  介  

  這是一部遲到了很久的紀錄片,記載的是1974年穆罕默德·阿里和喬治·福爾曼在前扎伊爾首都金沙薩進行的著名的“叢林之戰”,居然還跟現場直播一樣扣人心弦。膠片的仰視視角將阿里放大成了一個文化標記,但由諾曼·梅勒和喬治·普林頓撰寫的犀利解說詞則令他重返凡間。

獲獎情況  

  第69屆奧斯卡金像獎(1997)
  最佳紀錄長片 David Sonenberg / 列昂·格斯特
  1. Video
  2. ID                                       : 1
  3. Format                                   : AVC
  4. Format/Info                              : Advanced Video Codec
  5. Format profile                           : [email protected]
  6. Format settings                          : CABAC / 4 Ref Frames
  7. Format settings, CABAC                   : Yes
  8. Format settings, Reference frames        : 4 frames
  9. Codec ID                                 : V_MPEG4/ISO/AVC
  10. Duration                                 : 1 h 27 min
  11. Bit rate                                 : 9 230 kb/s
  12. Width                                    : 1 920 pixels
  13. Height                                   : 1 080 pixels
  14. Display aspect ratio                     : 16:9
  15. Frame rate mode                          : Constant
  16. Frame rate                               : 23.976 (24000/1001) FPS
  17. Color space                              : YUV
  18. Chroma subsampling                       : 4:2:0
  19. Bit depth                                : 8 bits
  20. Scan type                                : Progressive
  21. Bits/(Pixel*Frame)                       : 0.186
  22. Stream size                              : 5.63 GiB (86%)
  23. Writing library                          : x264 core 158 r2984 3759fcb
  24. Encoding settings                        : cabac=1 / ref=4 / deblock=1:-3:-3 / analyse=0x3:0x133 / me=umh / subme=8 / psy=1 / psy_rd=1.00:0.00 / mixed_ref=1 / me_range=16 / chroma_me=1 / trellis=1 / 8x8dct=1 / cqm=0 / deadzone=21,11 / fast_pskip=0 / chroma_qp_offset=-2 / threads=30 / lookahead_threads=5 / sliced_threads=0 / nr=0 / decimate=1 / interlaced=0 / bluray_compat=0 / constrained_intra=0 / bframes=3 / b_pyramid=2 / b_adapt=1 / b_bias=0 / direct=3 / weightb=1 / open_gop=0 / weightp=2 / keyint=250 / keyint_min=23 / scenecut=40 / intra_refresh=0 / rc_lookahead=50 / rc=2pass / mbtree=1 / bitrate=9230 / ratetol=1.0 / qcomp=0.60 / qpmin=0 / qpmax=69 / qpstep=4 / cplxblur=20.0 / qblur=0.5 / vbv_maxrate=62500 / vbv_bufsize=78125 / nal_hrd=none / filler=0 / ip_ratio=1.40 / aq=1:1.00
  25. Default                                  : Yes
  26. Forced                                   : No

  27. Audio
  28. ID                                       : 2
  29. Format                                   : DTS
  30. Format/Info                              : Digital Theater Systems
  31. Codec ID                                 : A_DTS
  32. Duration                                 : 1 h 27 min
  33. Bit rate mode                            : Constant
  34. Bit rate                                 : 1 509 kb/s
  35. Channel(s)                               : 5 channels
  36. Channel layout                           : C L R Ls Rs
  37. Sampling rate                            : 48.0 kHz
  38. Frame rate                               : 93.750 FPS (512 SPF)
  39. Bit depth                                : 24 bits
  40. Compression mode                         : Lossy
  41. Stream size                              : 944 MiB (14%)
  42. Language                                 : English
  43. Default                                  : Yes
  44. Forced                                   : No

  45. Menu
  46. 00:00:00.000                             : en:00:00:00.000
  47. 00:09:16.473                             : en:00:09:16.473
  48. 00:17:11.197                             : en:00:17:11.197
  49. 00:23:27.781                             : en:00:23:27.781
  50. 00:34:09.422                             : en:00:34:09.422
  51. 00:42:50.359                             : en:00:42:50.359
  52. 00:49:38.225                             : en:00:49:38.225
  53. 00:59:40.327                             : en:00:59:40.327
  54. 01:14:07.026                             : en:01:14:07.026
  55. 01:17:19.301                             : en:01:17:19.301
  56. 01:20:20.899                             : en:01:20:20.899
復制代碼









分享到:  QQ好友和群QQ好友和群
收藏收藏
開通VIP免費下載本站所有資源---點這里
新手必看:資源下載常見問題---點這里
回復

使用道具 舉報

2#
發表于 昨天 18:50 | 只看該作者

樓主太厲害了!樓主,電影應該很好看我覺得藍光電影網真是個好地方!
開通VIP免費下載本站所有資源---點這里
新手必看:資源下載常見問題---點這里
回復 支持 反對

使用道具 舉報

3#
發表于 2 小時前 | 只看該作者
樓主發貼辛苦了,謝謝樓主分享!我覺得藍光電影網是注冊對了!
開通VIP免費下載本站所有資源---點這里
新手必看:資源下載常見問題---點這里
回復 支持 反對

使用道具 舉報

懶得打字嘛,點擊右側快捷回復 【右側內容,后臺自定義】
您需要登錄后才可以回帖 登錄 | 立即加入

本版積分規則

現在加入藍光電影網,注冊一個賬號

QQ| 手機版|小黑屋| 藍光電影網 |網站地圖

Copyright © 2015-2019 Comsenz Inc.  Template by 藍光電影網 All Rights Reserved.

Powered by 藍光電影網 X3.4

特別聲明:本站所有資源均由網上收集而來,版權歸原影音公司所有,如果侵犯了你的權益,請通知我們,我們會及時刪除侵權內容.

快速回復 返回頂部 返回列表
极速快三是私人彩票吗